Yahoo! JAPAN

検索設定 - この検索結果ページについて

Duration: 00:00:10.0, start: 0.000000, bitrate: 0 kb/s で検索した結果 1~10件目 / 約9件 - 0.41秒

ウェブ

  1. Composition on ffmpeg does not match sizes - Stack Overflow
    (I formatted it a little, so that is more readable) ... [col0][p0c]hstack=inputs=2[ videoout] " -map '[videoout]' -c:v libx264 -b:v 3000k -t 00:00:10.0 ... Input 1 height 874 does not match input 0 height 872. ... 2015-03-12 16:22:27 Duration: 00:00: 09.97, start: 0.000000, bitrate: 1648 kb/s Stream #1:0(eng): Video: vp8, yuv420p,  ...
    stackoverflow.com/.../composition-on-ffmpeg-does-not...
  2. ffmpeg stuck in generating thumbnail of video - Super User
    2019年12月11日 ... ffmpeg -i IMG_1001.MOV -ss 00:00:02 -vframes 1 thumbnail.jpg. It gets stuck at the third last line frame= 0 fps=0.0 q=0.0 Lsize=N/A time=00:00:00.00 bitrate=N/A speed= 0x and from then on, I stopped the process with ctrl+c.
    superuser.com/.../ffmpeg-stuck-in-generating-thumbnai...
  3. FFMPEG: Convert & Edit Video via Command Line | Mukesh ...
    2019年7月2日 ... FFMPEG is a free software that lets you create/edit/convert videos via command line. You can ... Duration: 00:00:19.80, start: 0.000000, bitrate: 997 kb/s. Stream # 0:0(eng): Video: h264 (Baseline) (avc1 / 0x31637661), yuv420p, 320x240, 514 kb/s, SAR 1:1 DAR 4:3, 29.97 fps, 30 tbr, 90k tbn, 180k tbc (default) ... ffmpeg -ss 00:00:10.0 -i input.mp4 -c copy -t 00:00:20.0 output.mp4 ...
    blog.chapagain.com.np/ffmpeg-convert-edit-video-via-...
  4. Output via rtsp results in logs not displaying frame size nor bitrate
    0 libswscale 2. 1. 0 / 2. 1. 0 libpostproc 51. 2. 0 / 51. 2. 0 [dv @ 0x10180e800] Estimating duration from bitrate, this may be inaccurate Input #0, dv, from '/var/run /raw.dv': Duration: N/A, start: 0.000000, bitrate: 28771 kb/s Stream ...
    trac.ffmpeg.org/ticket/1446
  5. iPodME | Noda's Dev Blog
    corrected a bug with the ouptut path: now it will always be the same path as where iPodME is = fixed window ... + last settings are now saved and automatically restored at start = fixed the ... Duration: 00:00:10.0, start: 0.000000, bitrate: 0 kb/s
    nodadev.wordpress.com/pc-projects/ipodme/
  6. a1ctl final version is here | Noda's Dev Blog
    As promised, here is the final version of a1ctl. By "final", I mean it ... But fortunately, the source code is available so anyone is able to take up the project. I 've read all the ... Duration: 00:00:10.0, start: 0.000000, bitrate: 0 kb/s
    nodadev.wordpress.com/.../a1ctl-final-version-is-here/
  7. Help with ffmpeg - VideoHelp Forum
    Input #0, dash, from 'https://vod49-dash-cdn1-vp-cdn-viaplay-tv.akamaized.net/ 9292039/20469881-1523890222418.ism/index.mpd': Duration: 00:42:50.00, start : 0.000000, bitrate: 0 kb/s. Program 0. Stream #0:0: Video: h264 ...
    forum.videohelp.com/threads/388887-Help-with-ffmpeg
  8. 日記/2007-11-10 - BAK
    Output #0, mov, to 'foo.mov': Stream #0.0: Video: rawvideo, yuvj420p, 320x240, ... Duration: 00:00:10.0, start: 0.000000, bitrate: 12266 kb/s Stream #0.0(eng): ...
    jr0bak.homelinux.net > Top > 日記
  9. AQ2200シリーズ マルチアプリケーションテストシステム ユーザーズ ...
    Total Time. 測定時間を設定します。 Data Points. 測定サンプル数を設定します。 WL Mode. 測定波長モードを設定します。 ... Start. 測定を開始します。 Graph. 測定で取得 中および取得済みデータをグラフ表示します。詳細は第 7 章. をご覧ください。 ... 受信 ビットレート. 表示範囲:9.940000 ~ 11.329999 [Gbit/s]. Received opt power *4.*6. 受光器に入力される平均受光パワーを数値表示 ... 1.000000e+06. 0.000000e+00. 0.000000e+00. 0. Stop. Jul/11/2004 14:21:38. ElapsedTime. 00:00:00:10.0. LastResult.
    cdn.tmi.yokogawa.com/18/6179/.../IM735101-04JA.pd...
検索設定 - この検索結果ページについて

Copyright (C) 2020 Yahoo Japan Corporation. All Rights Reserved.